Help - Search - Members - Calendar
Full Version: Livløst - Bråtebu (2020)
Metal Area - Extreme Music Portal > Releases Area / Релизы > New Releases > Unformat R:
Samaritianin


*Artist: Livløst
*Album: Bråtebu
*Year: 2020
*Genre: Dungeon Synth
*Country: Norway
*Format: mp3@CBR320kbps
*Size: 97MB

Tracklist:
1. Bråtebu 02:11
2. The Pentagram 05:23
3. Волк 06:56
4. Voices of Darkness 08:27
5. Dead Eyes 06:41
6. Cannibal 08:29
7. Ocean of Piss 03:50
******************************
Total playing time: 41:57



Technical info

Input File: 04 - Voices of Darkness.mp3
Channels : 2
Sample Rate : 44100
Precision : 16-bit
Duration : 00:08:27.30 = 22372062 samples = 38047.7 CDDA sectors
File Size : 20.5M
Bit Rate : 323k
Sample Encoding: MPEG audio (layer I, II or III)
Comments :
Title=Voices of Darkness
Artist=Livløst
Album=Bråtebu
Tracknumber=4
Year=2020-01-15
Genre=Alternative; Indie Rock; Metal
Discnumber=1



[ Hidden Text ]
Shagarth21
"necro black-metal from norway! "
Beazth
"Придет серенький волчок..." Мда. Донельзя унылый и бестолковый вышел "dungeon synth".
Cosmic_Sorcerer
Откровенно бессмысленная мешанина из типа Данж Синта с бестолковой гитарной возней под БМ
This is a "lo-fi" version of our main content. To view the full version with more information, formatting and images, please click here.
Invision Power Board © 2001-2020 Invision Power Services, Inc.