*Artist: Apathist
*Album: Clergy Of Destruction
*Year: 2019
*Genre: Blackened Thrash Metal
*Country: Unknown
*Format: mp3@CBR320kbps
*Size: 94MB

Tracklist:
01. I Am Become Death
02. Autopsy
03. 2 Minutes Hate
04. Being Ripped Apart
05. Cold-Sweats (Intrumental)
06. Drenched in Blood
07. Big Boobs and Fire
08. Trial by Stone
09. The Clergy of Destruction
10. Annihilism
11. Subliminal
12. Sentenced to Death
******************************
Total playing time: 40:12





Technical info

Input File: 06 - Drenched in Blood.mp3
Channels : 2
Sample Rate : 44100
Precision : 16-bit
Duration : 00:05:01.08 = 13277672 samples = 22581.1 CDDA sectors
File Size : 12.2M
Bit Rate : 324k
Sample Encoding: MPEG audio (layer I, II or III)
Comments :
Title=Drenched in Blood
Artist=Apathist
Album=Clergy of Destruction
Tracknumber=6
Year=2019-12-29
Genre=Metal
Discnumber=1



[ Hidden Text ]