Help - Search - Members - Calendar
Full Version: Black Kirin - 秦淮 [ep] (2019)
Metal Area - Extreme Music Portal > Releases Area / Релизы > New Releases
Necrokilldozer


*Artist: Black Kirin
*Album: 秦淮 [ep]
*Year: 2019
*Genre: Melodic Death/Folk Metal
*Country: China
*Format: mp3@CBR320kbps
*Size: 75MB

Tracklist:
1.秦淮 12:01
2.故土 02:57 instrumental
3.南京 05:17
4.卸甲一战 04:05
5.凶寒 03:45
6.黑太阳 03:10
******************************
Total playing time: 31:15



Extended info
Line - up:

Fang Sen - Guitars
Huai Wei - Bass (Ephemerality, Skeletal Augury, ex-—)
杜思聪 - Drums
Wu Peng - Guitars (窒息, Massmurder, ex-Regicide)
Filth - Vocals (ObscureDream, Deep Throat, DirtyCreed, DyingMirage, ex-阵亡, ex-黑水仙)



Technical info

Input File: 03 南京.mp3
Channels : 2
Sample Rate : 44100
Precision : 16-bit
Duration : 00:05:17.54 = 14003470 samples = 23815.4 CDDA sectors
File Size : 12.7M
Bit Rate : 320k
Sample Encoding: MPEG audio (layer I, II or III)
Comments :
Title=南京
Artist=Black Kirin
Album=秦淮 (EP)
Tracknumber=03
Year=2019
Genre=Melodic Death/Folk Metal



[ Hidden Text ]
SAPOGi
This is a "lo-fi" version of our main content. To view the full version with more information, formatting and images, please click here.
Invision Power Board © 2001-2020 Invision Power Services, Inc.