*Artist: Macabre Demise
*Album: Awakening
*Year: 2020
*Genre: Brutal Death Metal
*Country: Germany
*Format: mp3@CBR320kbps
*Size: 77MB

Tracklist:
01. Intro
02. Awakening
03. Mirror
04. Corpseball
05. Darkness
06. Gore and Guts
07. Prelude to Kill
08. Chamber of Pain
09. Slush Brains
10. Disturbia
11. 11 (Bonustrack)
******************************
Total playing time: 32:31





Extended info
Andreas Rieger All instruments, Vocals (2007-present)
See also: Bloodshot Eyes, Deformed Cadaver, Flesh Eater, ex-Plastic Surgery




Technical info

Input File: 04 - Corpseball.mp3
Channels : 2
Sample Rate : 44100
Precision : 16-bit
Duration : 00:04:15.21 = 11254629 samples = 19140.5 CDDA sectors
File Size : 10.4M
Bit Rate : 325k
Sample Encoding: MPEG audio (layer I, II or III)
Comments :
Title=Corpseball
Artist=Macabre Demise
Album=Awakening
Tracknumber=4
Year=2020-01-16
Genre=Metal
Discnumber=1



[ Hidden Text ]