Help - Search - Members - Calendar
Full Version: The Head Of Helier - The Head Of Helier (2019)
Metal Area - Extreme Music Portal > Releases Area / Релизы > Archive
Gelukas


*Artist: The Head Of Helier
*Album: The Head Of Helier
*Year: 2019
*Genre: Atmospheric Black/Death Metal
*Country: Unknown
*Format: mp3@VBR280kbps
*Size: 84MB

Tracklist:
1. Geoffrey's Leap 09:02
2. La Tueûthie 08:04
3. Lé Rotchi d'Rocque Bèr 05:23
4. Minot's Light 13:05
5. Lé Creux au Dgiâbl'ye 05:31
******************************
Total playing time: 41:05




Extended info
One man black metal project from Jersey, Channel Islands.


Technical info

Input File: 02 La Tueûthie.mp3
Channels : 2
Sample Rate : 44100
Precision : 16-bit
Duration : 00:08:44.56 = 23133272 samples = 39342.3 CDDA sectors
File Size : 18.2M
Bit Rate : 278k
Sample Encoding: MPEG audio (layer I, II or III)
Comments :
Title=La Tueûthie
Artist=The Head of Helier
Album=The Head of Helier
Tracknumber=2
Year=2019



[ Hidden Text ]
Razorbladeswaltz
mirror, pls
This is a "lo-fi" version of our main content. To view the full version with more information, formatting and images, please click here.
Invision Power Board © 2001-2020 Invision Power Services, Inc.