*Artist: Новое Время
*Album: Шаг В Преисподню
*Year: 1991
*Genre: Heavy Metal/Hard Rock
*Country: Kyrgyzstan
*Format: mp3@CBR128kbps
*Size: 37MB

Tracklist:
1. Время ушло 04:35
2. Кровь 04:40
3. Шаг в преисподню 04:03
4. У трав, рождающих испуг 04:56
5. Христос из Назарета 04:34
6. Чужой 03:01
7. Миллионер 03:25
8. Час настал 03:03
9. Смертный мир 03:30
10. Дружбы костёр 02:42
******************************
Total playing time: 38:29



Technical info

Input File: 03 Шаг в преисподню.mp3
Channels : 2
Sample Rate : 44100
Precision : 16-bit
Duration : 00:04:10.71 = 11056091 samples = 18802.9 CDDA sectors
File Size : 4.15M
Bit Rate : 132k
Sample Encoding: MPEG audio (layer I, II or III)
Comments :
Title=Ųąć ā ļšåčńļīäķž
Artist=Новое Время
Album=Шаг в преисподню
Tracknumber=3
Year=1991
Genre=9



[ Hidden Text ]