*Artist: Necro Disseminator
*Album: Black Antichrist [demo]
*Year: 1990
*Genre: Black/Death Metal
*Country: Brazil
*Format: mp3@CBR192kbps
*Size: 8MB

Tracklist:
1. Necro Disseminator 02:57
2. Black Antichrist 03:09
******************************
Total playing time: 6:06

Extended info
Rehearsal 1989.


Technical info

Input File: 01-Necro Disseminator.mp3
Channels : 2
Sample Rate : 44100
Precision : 16-bit
Duration : 00:03:01.07 = 7984967 samples = 13579.9 CDDA sectors
File Size : 4.35M
Bit Rate : 192k
Sample Encoding: MPEG audio (layer I, II or III)
Comments :
Title=Necro Disseminator
Artist=Necro Disseminator
Album=Black Antichrist (demo)
Tracknumber=1
Year=1989
Genre=Black Metal/Grindcore



[ Hidden Text ]