Help - Search - Members - Calendar
Full Version: Garganjua - Toward The Sun (2020)
Metal Area - Extreme Music Portal > Releases Area / Релизы > Archive
necroscum


*Artist: Garganjua
*Album: Toward The Sun
*Year: 2020
*Genre: Stoner/Doom Metal
*Country: United Kingdom
*Format: mp3@CBR320kbps
*Size: 112MB

Tracklist:
01. Transcending 02:10
02. The New Sun 08:42
03. Mire 08:42
04. Transcendence 05:04
05. Light Bearer 06:27
06. Controlling Waves 08:10
07. To Ascend (awakening) 09:25
******************************
Total playing time: 48:40




Technical info

Input File: 05. Light Bearer.mp3
Channels : 2
Sample Rate : 44100
Precision : 16-bit
Duration : 00:06:27.19 = 17074859 samples = 29038.9 CDDA sectors
File Size : 15.6M
Bit Rate : 322k
Sample Encoding: MPEG audio (layer I, II or III)
Comments :
Title=Light Bearer
Artist=Garganjua
Album=Toward the Sun
Tracknumber=5
Year=2020-01-17
Genre=Metal
Discnumber=1



[ Hidden Text ]
bubba
Any chance to re-up?
J0k3r
Перезалейте, пожалуйста
This is a "lo-fi" version of our main content. To view the full version with more information, formatting and images, please click here.
Invision Power Board © 2001-2020 Invision Power Services, Inc.