Help - Search - Members - Calendar
Full Version: Crow Hunter - Somd (2020)
Metal Area - Extreme Music Portal > Releases Area / Релизы > New Releases
necroscum


*Artist: Crow Hunter
*Album: Somd
*Year: 2020
*Genre: Groove/Southern/Stoner Metal
*Country: United States
*Format: mp3@CBR320kbps
*Size: 118MB

Tracklist:
01. Chop 'n' Drop
02. Sound Off
03. Crow Hunter (Self-Titled)
04. Mariner (Of the High Seas)
05. Protect the King
06. Loch Ness
07. Shoot the Gap
08. American Pressure
09. Steel Your Mind
10. Kilimanjaro
11. Bandit
12. Sludge Hammer
******************************
Total playing time: 51:24




Technical info

Input File: 2 - Sound Off.mp3
Channels : 2
Sample Rate : 44100
Precision : 16-bit
Duration : 00:04:30.20 = 11915776 samples = 20264.9 CDDA sectors
File Size : 10.9M
Bit Rate : 323k
Sample Encoding: MPEG audio (layer I, II or III)
Comments :
Title=Sound Off
Artist=Crow Hunter
Album=Somd
Tracknumber=2
Year=2020
Genre=Rock/Metal
Discnumber=1



[ Hidden Text ]
nomadgg1
This is a "lo-fi" version of our main content. To view the full version with more information, formatting and images, please click here.
Invision Power Board © 2001-2020 Invision Power Services, Inc.