Help - Search - Members - Calendar
Full Version: Doomed To Fail - Fury (2020)
Metal Area - Extreme Music Portal > Releases Area / Релизы > Archive
Samaritianin


*Artist: Doomed To Fail
*Album: Fury
*Year: 2020
*Genre: Epic Melodic Death Metal
*Country: Austria
*Format: mp3@CBR320kbps
*Size: 65MB

Tracklist:
1. Betrayer 05:23
2. Rise 03:57
3. Servants of the Grey 03:34
4. Once More into the Fray 05:41
5. Incitement of Extermination 06:25
6. Voices of the Unheard 05:27
******************************
Total playing time: 30:27




Extended info
Jakob Bass
Patrick Hiebler Guitars, Lyrics (tracks 2, 3, 4)
Rene Müller Guitars
Alex Fürbaß Drums
Immanuel Liebmann Vocals, Lyrics (tracks 1, 5, 6)


Technical info

Input File: 04. Once More Into the Fray.mp3
Channels : 2
Sample Rate : 44100
Precision : 16-bit
Duration : 00:05:41.70 = 15069102 samples = 25627.7 CDDA sectors
File Size : 13.8M
Bit Rate : 323k
Sample Encoding: MPEG audio (layer I, II or III)
Comments :
Title=Once More Into the Fray
Artist=Doomed To Fail
Album=Fury
Tracknumber=4/6
Year=2020
Genre=9
Discnumber=1/1



[ Hidden Text ]
Foneg
Ну вот типичный представитель 95% мдма, о которых я говорил.
Глухой звук, скучный гроул, скучные мелодии 21.gif
isvili
ЦИТАТА(Foneg @ Jan 17 2020, 11:28:41) *
Глухой звук, скучный гроул, скучные мелодии 21.gif

Так жизнь вообще скучна на 90% отведенного времени smile2.gif
Foneg
ЦИТАТА(isvili @ Jan 17 2020, 16:50:19) *
Так жизнь вообще скучна на 90% отведенного времени smile2.gif


Поэтому в плеере из мдма лежат ранние Арх Энеми и первые два альбома Bloodshot Dawn crazy.gif
vosmidesijatye
ЦИТАТА(Foneg @ Jan 17 2020, 17:05:47) *
Поэтому в плеере из мдма


Звучит двусмысленно 1488.gif

Ну а сабж неплох, хоть и не очень часто такое слушаю но тут все звучит в меру приятственно. Не на 1 раз.

Ellaya
ЦИТАТА(Foneg @ Jan 17 2020, 15:05:47) *
Поэтому в плеере из мдма лежат ранние Арх Энеми и первые два альбома Bloodshot Dawn crazy.gif

Всего лишь?
Бедноватое у тебя восприятие...
С возрастом это пройдёт...
Foneg
ЦИТАТА(Ellaya @ Jan 17 2020, 17:26:44) *
Всего лишь?
Бедноватое у тебя восприятие...
С возрастом это пройдёт...


Есть что посоветовать из собственных богатых закромов для обогащения моего бедноватого восприятия, или только оценочные суждения относительно возраста и кругозора будут? 1488.gif
DenisKov
Третьесорт.
Aectan
Очень стандартно, без какой-либо изюминки, раз прогнать и забыть.
This is a "lo-fi" version of our main content. To view the full version with more information, formatting and images, please click here.
Invision Power Board © 2001-2020 Invision Power Services, Inc.