Help - Search - Members - Calendar
Full Version: K.F.R - L'enfer À Sa Source (2019)
Metal Area - Extreme Music Portal > Releases Area / Релизы > Archive
LazarShadow


*Artist: K.F.R
*Album: L'enfer À Sa Source
*Year: 2019
*Genre: Black Metal/Dark Ambient
*Country: France
*Format: mp3@CBR320kbps
*Size: 103MB

Tracklist:
1. L'enfer, c'est toi 07:55
2. Le sinueux chemin 07:38
3. Simulacre de chair 02:42 instrumental
4. Ne cherche pas à devenir, rien a jamais commencé 05:47
5. Anathème de l'envie 09:15
6. L'enfer à sa source 12:32
******************************
Total playing time: 45:49

Technical info

Input File: 3 - Simulacre de Chair.mp3
Channels : 2
Sample Rate : 44100
Precision : 16-bit
Duration : 00:02:42.83 = 7180803 samples = 12212.3 CDDA sectors
File Size : 6.51M
Bit Rate : 320k
Sample Encoding: MPEG audio (layer I, II or III)
Comment : 'Year=2019-02-19'



[ Hidden Text ]
vosmidesijatye
Зело хорошечный релиз (как и всегда у Таккарди).

Большое спасибо за релиз.
LazarShadow
[ Hidden Text ]
vosmidesijatye
Странно шо Леша как ценитель РОУ бм прошел мимо сего примечательного проекта.
This is a "lo-fi" version of our main content. To view the full version with more information, formatting and images, please click here.
Invision Power Board © 2001-2020 Invision Power Services, Inc.