Help - Search - Members - Calendar
Full Version: K.F.R - Démonologue (2019)
Metal Area - Extreme Music Portal > Releases Area / Релизы > Archive > Low Bitrate Archive (read only)
LazarShadow


*Artist: K.F.R
*Album: Démonologue
*Year: 2019
*Genre: Black Metal/Dark Ambient
*Country: France
*Format: mp3@CBR320kbps
*Size: 109MB

Tracklist:
1. Invocation 05:01
2. Asmodée 08:16
3. Azazel 08:34
4. Prélude à l'exterminateur 02:57
5. Abaddon 06:18
6. Lucifer 10:06
7. La chute 07:51
******************************
Total playing time: 49:03

Technical info

Input File: K.F.R - Lucifer.mp3
Channels : 2
Sample Rate : 44100
Precision : 16-bit
Duration : 00:10:02.81 = 26583833 samples = 45210.6 CDDA sectors
File Size : 24.1M
Bit Rate : 320k
Sample Encoding: MPEG audio (layer I, II or III)



[ Hidden Text ]
дивин
vosmidesijatye
Is it real 320 or fake?
LazarShadow
Real bandcamp download. I don't know what is with you reader. I will maybe post WAV files of some albums, so you can see it is real deal.
vosmidesijatye
ЦИТАТА(LazarShadow @ Jan 20 2020, 21:46:47) *
Real bandcamp download. I don't know what is with you reader. I will maybe post WAV files of some albums, so you can see it is real deal.


Thnx for explanation. The thing is that I know nothing about spetres and all this shit so I always wonder if there`re some doubts left.

Enormous thanx for KFR uploads. You do great thing. 9.gif

With your help we almost completed Max`s disco. pray.gif
LazarShadow
QUOTE(LazarShadow @ Jan 20 2020, 22:46:47) *
Real bandcamp download. I don't know what is with you reader. I will maybe post WAV files of some albums, so you can see it is real deal.

sarcophagus
ЦИТАТА(vosmidesijatye @ Jan 20 2020, 21:50:13) *
With your help we almost completed Max`s disco. pray.gif


Everybody loves disco! banana.gif
This is a "lo-fi" version of our main content. To view the full version with more information, formatting and images, please click here.
Invision Power Board © 2001-2020 Invision Power Services, Inc.