Help - Search - Members - Calendar
Full Version: K.F.R - Ad Manifestationem Diaboli (2018)
Metal Area - Extreme Music Portal > Releases Area / Релизы > Archive > Low Bitrate Archive (read only)
LazarShadow


*Artist: K.F.R
*Album: Ad Manifestationem Diaboli
*Year: 2018
*Genre: Black Metal/Dark Ambient
*Country: France
*Format: mp3@CBR320kbps
*Size: 102MB

Tracklist:
1. Il n'y a pas de Paradis où je traîne, que des baisés qui ont la Haine 07:42
2. Darkness and Pain 04:38
3. In my Dreams of Morbidity 05:32
4. Under the World 05:16
5. Through the funeral Maelstrom of Evil (Mütiilation cover) 09:05
6. I Hate 08:08
7. Here I Crawl 03:42
8. Ad Noctis Huius Calíginem Destruéndam 04:53
******************************
Total playing time: 48:56

Technical info

Input File: K.F.R - I Hate.mp3
Channels : 2
Sample Rate : 44100
Precision : 16-bit
Duration : 00:07:58.31 = 21093471 samples = 35873.2 CDDA sectors
File Size : 19.1M
Bit Rate : 320k
Sample Encoding: MPEG audio (layer I, II or III)



[ Hidden Text ]
Cosmic_Sorcerer
С этого альбома, началось мое знакомство с творчеством этого безумного француза.
Представленный здесь ковер на Mütiilation просто pray.gif
vosmidesijatye
Пасматри его крававые картины в фейсбуке)
This is a "lo-fi" version of our main content. To view the full version with more information, formatting and images, please click here.
Invision Power Board © 2001-2020 Invision Power Services, Inc.