Help - Search - Members - Calendar
Full Version: Warloghe - Unlighted [ep] (1997)
Metal Area - Extreme Music Portal > Releases Area / Релизы > New Releases > Lossless
Абигор


*Artist: Warloghe
*Album: Unlighted [ep]
*Year: 1997
*Genre: Black Metal
*Country: Finland
*Format: mp3@CBR320kbps
*Size: 25MB

Tracklist:
1. Waaslandia 06:28
2. Foretold Vast Sorceries Unfold 04:30
******************************
Total playing time: 10:58

Extended info
Было в лоу.

Благодарность за предоставленный Lossless камраду RADeus.


Technical info

Input File: 01 - Waaslandia.mp3
Channels : 2
Sample Rate : 44100
Precision : 16-bit
Duration : 00:06:28.46 = 17131174 samples = 29134.6 CDDA sectors
File Size : 15.5M
Bit Rate : 320k
Sample Encoding: MPEG audio (layer I, II or III)
Comments :
Title=Waaslandia
Artist=Warloghe
Album=Unlighted
Tracknumber=1
Year=1997
Genre=Black Metal



[ Hidden Text ]
[ Hidden Text ]
Cosmic_Sorcerer
Культовое EP от культовой банды true_black.gif
This is a "lo-fi" version of our main content. To view the full version with more information, formatting and images, please click here.
Invision Power Board © 2001-2020 Invision Power Services, Inc.