Help - Search - Members - Calendar
Full Version: Dolores - Solitary (2020)
Metal Area - Extreme Music Portal > Releases Area / Релизы > Archive
VLADISLAV_V_K


*Artist: Dolores
*Album: Solitary
*Year: 2020
*Genre: Depressive/Post-Black Metal/Post-Rock
*Country: International
*Format: mp3@CBR320kbps
*Size: 89MB

Tracklist:
01. Change 09:16
02. Back In the Day 09:07
03. Sleepless 10:01
04. Giant Steps (To Madness) (John Coltrane cover) 05:55
05. Forevermore 04:31
******************************
Total playing time: 38:50

Preview 1



Extended info


Россия/Украина

Alexandra Zagaynova - Vocals
Dmitry Ustimenko - Vocals
Alexey Gubanov - Guitars
Alexander Sinyugin - Saxophones, clarinet
Anton Potopnin - Bass
Andriy Buchynskyi - Drums

Lyrics by Alexandr Aksenov
Music by Dolores

Mixed and Mastered by Anar Gamidov


Technical info

Input File: 05-Forevermore.mp3
Channels : 2
Sample Rate : 44100
Precision : 16-bit
Duration : 00:04:31.09 = 11955069 samples = 20331.7 CDDA sectors
File Size : 10.8M
Bit Rate : 320k
Sample Encoding: MPEG audio (layer I, II or III)
Comments :
Title=Forevermore
Artist=Dolores
Album=Solitary
Tracknumber=5
Year=2020
Genre=Depressive Black Metal



[ Hidden Text ]
folker
Епт, где отзывы? Альбум ведь шикарный! Кларнет и сакс решают!
This is a "lo-fi" version of our main content. To view the full version with more information, formatting and images, please click here.
Invision Power Board © 2001-2020 Invision Power Services, Inc.