Help - Search - Members - Calendar
Full Version: Serpent Noir - Death Clan Od (2020)
Metal Area - Extreme Music Portal > Releases Area / Релизы > Archive > Low Bitrate Archive (read only)
VLADISLAV_V_K


*Artist: Serpent Noir
*Album: Death Clan Od
*Year: 2020
*Genre: Black Metal
*Country: Greece
*Format: mp3@CBR128kbps
*Size: 35MB

Tracklist:
01. The Black Knighthood Of OD 00:57
02. Cutting The Umbilical Cord Of Hel 07:03
03. Hexcraft 05:26
04. Asmodeus: The Sword Of Golachab 06:22
05. Astaroth: The Jaws Of Gha’Agsheblah 05:05
06. Necrobiological Chant Of Talas 06:08
07. Goeh Ra Reah: Garm Unchained 06:33
******************************
Total playing time: 37:34



Extended info


Serpent Noir is:
Y.K.: Rhythm and lead guitars, chants
K.K.: Lead vocals, chants
C.L: Lead guitars
JK: Bass guitars
G. C: Drums, percussion

All music by Y.K, all lyrics by Thomas Kar!sson.
Vocals on GOEH RA REAH: Garm Unchained by Thomas Kar!sson
recorded at Dragon Rouge UR Stoa Temple, Stockholm, Sweden.
Sound engineered by Johannes Kvarnbrink.

Death Clan OD recorded, mixed and mastered at IGNITE STUDIOS,
Peristeri, Greece by George Christoforidis and Serpent Noir.

Artwork and Layout by LGN.


Technical info

Input File: 05-Astaroth The Jaws Of Gha'Agsheblah.mp3
Channels : 2
Sample Rate : 44100
Precision : 16-bit
Duration : 00:05:05.88 = 13489220 samples = 22940.9 CDDA sectors
File Size : 4.90M
Bit Rate : 128k
Sample Encoding: MPEG audio (layer I, II or III)
Comments :
Title=Astaroth: The Jaws Of Gha'Agsheblah
Artist=SERPENT NOIR
Album=Death Clan OD
Tracknumber=5
Year=2020
Genre=Black Metal



[ Hidden Text ]
VLADISLAV_V_K
mp3@320
[ Hidden Text ]
This is a "lo-fi" version of our main content. To view the full version with more information, formatting and images, please click here.
Invision Power Board © 2001-2020 Invision Power Services, Inc.