Help - Search - Members - Calendar
Full Version: Lugubrum - Plage Chômage (2020)
Metal Area - Extreme Music Portal > Releases Area / Релизы > Archive > Low Bitrate Archive (read only)
judaz


*Artist: Lugubrum
*Album: Plage Chômage
*Year: 2020
*Genre: Avant-Garde Metal
*Country: Belgium
*Format: mp3@CBR128kbps
*Size: 33MB

Tracklist:
01. Plage Chômage 7:23
02. Seelenglut 5:09
03. Foefganger 5:04
04. Muzzammil 5:39
05. Goldhut 5:44
06. Fatty Streak 6:35
******************************
Total playing time: 35:34



Technical info

Input File: 03. Foefganger.mp3
Channels : 2
Sample Rate : 44100
Precision : 16-bit
Duration : 00:05:03.71 = 13393567 samples = 22778.2 CDDA sectors
File Size : 4.92M
Bit Rate : 130k
Sample Encoding: MPEG audio (layer I, II or III)
Comments :
Title=Foefganger
Artist=Lugubrum
Album=Plage Chômage
Tracknumber=3
Year=2020
Genre=Avantgarde



[ Hidden Text ]
RUSP73
Название хоть бы сменили или под другой вывеской творили бы такую музыку. Я, конечно, понимаю, что они к этому шли, но все-таки...Для меня они закончились после Bruyne troon - дальше уже не то, что я в них любил
garmonbozia
совершенно правильный путь без необходимости смены названия.
Kazoth
Мне только предыдущий не зашел, остальные вроде норм были...
garmonbozia
ЦИТАТА(Kazoth @ 12th February 2020 - 00:29:38) *
Мне только предыдущий не зашел, остальные вроде норм были...


ЦИТАТА(Kazoth @ 11th January 2018 - 23:15:43) *
Можно любить Lugubrum, можне не любить, но называть их музыку пустой и скучной - это уж слишком!

Альбом ксати огонь! Алкоголик-фьжн-джэзз ))

hmm.gif
Kazoth
ЦИТАТА(garmonbozia @ Feb 11 2020, 22:58:33) *
hmm.gif

Lugubrum - Herval (2015)
Не знаю где ты это нашел. 2 раза прокрутил комменты, так и не нашел))
З.Ы. Попутал, это не предыдущий))
garmonbozia
ЦИТАТА(Kazoth @ 12th February 2020 - 01:03:43) *
Не знаю где ты это нашел. 2 раза прокрутил комменты, так и не нашел))
З.Ы. Попутал, это не предыдущий)

вово.
piedpiper
Шедевральный альбом как и все предыдущие, начиная с De Ware Hond (ладно, Wakar Cartel больше тянул на неплохую EP).
RUSP73
ЦИТАТА(Anhra Mainyu @ Feb 11 2020, 23:05:02) *
Для меня последний был Winterstones.

Первый и последний, если точнее 1488.gif
Aresson
ЦИТАТА(Kazoth @ 11th February 2020 - 23:03:43) *
2 раза прокрутил комменты, так и не нашел))

зачэм крутить, слющай? Карычнэвий стрэлка после фраза "ЦИТАТА(Kazoth @ 11th January 2018 - 23:15:43) " нажал и всьо!
Kazoth
ЦИТАТА(Aresson @ Feb 12 2020, 08:33:47) *
зачэм крутить, слющай? Карычнэвий стрэлка после фраза "ЦИТАТА(Kazoth @ 11th January 2018 - 23:15:43) " нажал и всьо!

Ё моё! Я же ретроград) Спасибо за лайф-хак))
Aresson
Всему вас надо учить. Мальцы! 15.gif
nikolay81
Перезалейте на другой обменник, пожалуйста.
This is a "lo-fi" version of our main content. To view the full version with more information, formatting and images, please click here.
Invision Power Board © 2001-2020 Invision Power Services, Inc.