Help - Search - Members - Calendar
Full Version: Cénotaphe - Monte Verità (2020)
Metal Area - Extreme Music Portal > Releases Area / Релизы > New Releases > Lossless
Daale


*Artist: Cénotaphe
*Album: Monte Verità
*Year: 2020
*Genre: Black Metal
*Country: France
*Format: mp3@CBR320kbps
*Size: 106MB

Tracklist:
01. Myosis 06:57
02. Aux cieux antérieurs 04:27
03. L'oeuf de mammon 03:42
04. De mon promontoire astral 06:53
05. Intolérante thébaide 04:41
06. Ne m'oubliez 06:51
07. Emersion 05:44
08. Monte Verità 06:52
******************************
Total playing time: 46:07



Extended info
Personal purchase


Technical info

Input File: Cénotaphe - Monte Verità - 04 Cénotaphe - 04- De mon promontoire astral.mp3
Channels : 2
Sample Rate : 44100
Precision : 16-bit
Duration : 00:06:53.31 = 18226795 samples = 30998 CDDA sectors
File Size : 16.6M
Bit Rate : 322k
Sample Encoding: MPEG audio (layer I, II or III)
Comments :
Title=De mon promontoire astral
Artist=Cénotaphe
Album=Monte Verità
Tracknumber=4
Year=2020



[ Hidden Text ]
Kehl05
Line Up:
Fog - All instruments (Aeterna Tenebrae, Höggva, Iphicrate, Norman Shores, Rêx Mündi, Salamandar, Ulfberht, Weltering In Blood, ex-Asylum Phenomena, ex-Birthdecline, ex-Drangsalymir, ex-Obscurité, ex-Quintessence, ex-Caverne, ex-Nécropole, ex-The Bottle Doom Lazy Band, ex-AUM, ex-Aurvandil, ex-Sickbag, ex-Umbakrail, ex-Angmar)
Khaosgott - Vocals (lead) (Frozen Graves, Ördög, ex-Nécropole, ex-Syklisk Nedgang)
doomvssa
add new link
RUSP73
Да уж, киньте ссылку новую - лимит превышен
rimfrost
Релизёру респект !!! Давай порадуй братву полностью и зарелизь ещё Nawaharjan плз ! И если возможно залить на другие обменники !
garmonbozia
[ Hidden Text ]
день стал лучше.
Daale
rimfrost, Nawaharjan к сожалению залить не могу, мне опять доступ к промо иначе закроют. Думаю, что кто-нибудь рипанет сразу, как на Youtube, на Black Metal Promotion, появится
judaz
Очень неплохо, где-то на уровне прошлогоднего Норман Шорес и в тыщу раз лучше унылого Аетерна Тенебрае.
babanguida
Interesting release.
garmonbozia
первый трек безликий какой то, но потом с огоньком да чистоголосием зажгло как надо
Arkwulf
Cénotaphe - Monte Verità (2020), FLAC (tracks), Lossless 336 MB
[ Hidden Text ]
6666666
А я по-прежнему жду думовый Ценотаф от Неагоэ.

ЦИТАТА(garmonbozia @ 15th February 2020 - 13:51:56) *
да чистоголосием зажгло как надо

Забираю.
Der_Hexer
Начало какое то блекловатое получилось, но зато потом аж дух захватывает. Проект который не разочаровал не одной из своих записей
6666666
ЦИТАТА(Daale @ 13th February 2020 - 18:05:26) *
Myosis

Вот это понравилось. Но и в целом альбом терпит.
6666666
Хороший альбом. Мелодии саргейстовского толка меня всегда до нитки раздевают, а тут они ещё такие... как бы незавершённые, интригующие, как будто по тонкому льду ходишь и не понимаешь, то ли провалиться, позволив себя утопить в прекрасном, то ли продолжать опасливо ступать, понимая, что тонкий лёд - это то, что необходимо.
Жаль только, что высокий уровень мелодики держится три первые песни, дальше заметно хуже, да и этот каркающий вокал по ушам ездит.
HviteGuden
ЦИТАТА(6666666 @ Feb 21 2020, 21:22:54) *
Хороший альбом. Мелодии саргейстовского толка меня всегда до нитки раздевают, а тут они ещё такие... как бы незавершённые, интригующие, как будто по тонкому льду ходишь и не понимаешь, то ли провалиться, позволив себя утопить в прекрасном, то ли продолжать опасливо ступать, понимая, что тонкий лёд - это то, что необходимо.
Жаль только, что высокий уровень мелодики держится три первые песни, дальше заметно хуже, да и этот каркающий вокал по ушам ездит.

Да, Саргайст тут чувствуется. А ещё БАН образца Мемории и ранние КПН.
biroutios
people and their comparisons...
This is a "lo-fi" version of our main content. To view the full version with more information, formatting and images, please click here.
Invision Power Board © 2001-2020 Invision Power Services, Inc.