*Artist: Agenda
*Album: На Свет
*Year: 2019
*Genre: Alternative/Atmospheric Rock/Punk
*Country: Russian Federation
*Format: mp3@CBR320kbps
*Size: 103MB

Tracklist:
01. Мёртвая вода 03:24
02. Ебанаты 05:04
03. Зазеркалье 05:10
04. На свет 07:57
05. Живая вода 03:51
06. Одной нитью 04:34
07. А нам с тобой 04:33
08. Когда поймёшь 03:38
09. Нет смерти 06:48
******************************
Total playing time: 44:59

Preview 1
Preview 2

Extended info
Состав:
Янис Георгиади - вокал, гитара
Алексей Георгиади - бас
Юрий "Герих" Шевченко - ударные, перкуссия, кахон


Technical info

Input File: 02-Ебанаты.mp3
Channels : 2
Sample Rate : 44100
Precision : 16-bit
Duration : 00:05:04.29 = 13419365 samples = 22822 CDDA sectors
File Size : 12.2M
Bit Rate : 320k
Sample Encoding: MPEG audio (layer I, II or III)
Comments :
Title=Ебанаты
Artist=Agenda
Album=На Свет
Tracknumber=2
Year=2019
Genre=Alternative Rock, Grunge



[ Hidden Text ]