Help - Search - Members - Calendar
Full Version: Ikarass - Relapse Into Desolation (2020)
Metal Area - Extreme Music Portal > Releases Area / Релизы > Archive
Samaritianin


*Artist: Ikarass
*Album: Relapse Into Desolation
*Year: 2020
*Genre: Doom/Post-Metal
*Country: Spain
*Format: mp3@CBR320kbps
*Size: 108MB

Tracklist:
1. Guided by Greed 12:49
2. Blood Heaven 08:44
3. Descend 10:43
4. Relapse into Desolation 08:02
5. Deception 06:58
******************************
Total playing time: 47:16




Extended info
Unai Baseta Bass
Imanol Bernaola Drums
Matio Baños Guitars
Hodei G. Mendiguren Guitars
Imanol M. Aginako Vocals


Technical info

Input File: 02 - Blood Heaven.mp3
Channels : 2
Sample Rate : 44100
Precision : 16-bit
Duration : 00:08:44.44 = 23127804 samples = 39333 CDDA sectors
File Size : 21.0M
Bit Rate : 321k
Sample Encoding: MPEG audio (layer I, II or III)
Comments :
Title=Blood Heaven
Artist=Ikarass
Album=Relapse into Desolation
Tracknumber=2
Year=2020



[ Hidden Text ]
Samaritianin
Cloud Mail 320
[ Hidden Text ]
дивин
судя по превью Cult of Luna worship.
folker
Неплохо, но слишком однобразно.
vosmidesijatye
ЦИТАТА(дивин @ Mar 21 2020, 20:11:38) *
судя по превью Cult of Luna worship.


Да, только серый и невыразительный.

Всё одно лучше оригинал переслушать.
gena
Прекрасная, яркая, потрясающая работа.
This is a "lo-fi" version of our main content. To view the full version with more information, formatting and images, please click here.
Invision Power Board © 2001-2021 Invision Power Services, Inc.