Help - Search - Members - Calendar
Full Version: Molested Divinity - Unearthing The Void (2020)
Metal Area - Extreme Music Portal > Releases Area / Релизы > Archive
Samaritianin


*Artist: Molested Divinity
*Album: Unearthing The Void
*Year: 2020
*Genre: Brutal Death Metal
*Country: Turkey
*Format: mp3@CBR320kbps
*Size: 65MB

Tracklist:
1. Dogmatic Imprecation 03:13
2. Unearthing the Void 03:27
3. Antediluvian Anguish 03:29
4. Molesting the Divine 04:55
5. Preaching Above the Impenetrable 03:19
6. Abnegating the Deities 03:34
7. Chasmic Absorption Through Portals of Dissaray 02:58
8. Aversive Perpetuity 02:56
******************************
Total playing time: 27:51




Extended info
Berk Köktürk Drums (2016-present)
See also: Cidesphere, Decimation, Raven Woods
Emre Üren Guitars, Bass (2016-present)
See also: Decimation, ex-Raven Woods
Batu Çetin Vocals (2016-present)
See also: Cenotaph, Coprobaptized Cunthunter, Drain of Impurity, Grotesque Ceremonium, Phosgendöd, Womb of Decay, Decimation (live), ex-Bereavement, ex-Strappado, ex-Blutmond (live), ex-Carnophage (live)
Cihan Akün Bass (2018-present)
See also: Burial Invocation, Cenotaph, ex-Raven Woods, ex-Carnophage (live), ex-Nettlethrone (live)


Technical info

Input File: New Standard Elite - Molested Divinity - Unearthing the Void - 04 Molesting the Divine.mp3
Channels : 2
Sample Rate : 44100
Precision : 16-bit
Duration : 00:04:55.46 = 13029830 samples = 22159.6 CDDA sectors
File Size : 12.0M
Bit Rate : 324k
Sample Encoding: MPEG audio (layer I, II or III)
Comments :
Title=Molesting the Divine
Artist=New Standard Elite
Album=Molested Divinity | Unearthing the Void
Tracknumber=4
Year=2020



[ Hidden Text ]
oathzine
Flac

[ Hidden Text ]
Metalass
Идейное продолжение прошлого альбома (будто бы прошлый альбом имел какую-то идею smile1.gif ), с чуть более утробным саундом с более громкими низкими частотами.
Отличить от прошлого почти невозможно.
Просто хороший брутал, который можно включить на короткие 27 минут, чтобы расслабиться и получить неплохой заряд бодрости.
Faust_Vulkan_16
Бату Сетин неплохо рычит кстати, помню его по Ценотафу.
А музыка скучная, сразу зевать и в сон клонит.
21.gif
FullofHate
Molested Divinity - это дитя, рожденное в союзе Cenotaph и Decimation.
Лупят знатно, приятно, мощно. И ни разу не скучно. Музыка во многом тяготеет к Cenotaph и никто не заметил бы подмены, будь музыка выпущена под этим именем =)))
Понравилось, хотя понимая, что в составе есть люди из Decimation, предполагалось услышать нечто хоть сколько-нибудь одаренное интеллектом, но нет, не в этот раз.
This is a "lo-fi" version of our main content. To view the full version with more information, formatting and images, please click here.
Invision Power Board © 2001-2020 Invision Power Services, Inc.