Help - Search - Members - Calendar
Full Version: Nerve Saw - Peril (2020)
Metal Area - Extreme Music Portal > Releases Area / Релизы > Archive
Samaritianin


*Artist: Nerve Saw
*Album: Peril
*Year: 2020
*Genre: Old School Death Metal
*Country: Finland
*Format: mp3@CBR320kbps
*Size: 70MB

Tracklist:
1. A Fool 01:58
2. Life Goes On... Not 03:10
3. No Lead 01:27
4. The Red Line 02:22
5. Ghosts in Dialogue 03:05
6. Empty Heart 05:20
7. Nails 02:50
8. Last Verse for the Buried 02:05
9. P.I.A.T. 02:02
10. The Eye of the Golem 02:34
11. Wolves of the 80's 03:02
******************************
Total playing time: 29:55




Extended info
Michael Dorrian Drums
See also: Anatomy of I, ex-Doomspeak, ex-Mutilation Process, ex-Sinister (live)
Markus Makkonen Everything
See also: Farewell, Infektor, Sadistik Forest, Se, josta ei puhuta (live), ex-Mutilation Process, Entrail Tension Experiment, ex-Hooded Menace
Heikki Matero Guitars
See also: Farewell, Se, josta ei puhuta



Technical info

Input File: 06. Empty Heart.mp3
Channels : 2
Sample Rate : 44100
Precision : 16-bit
Duration : 00:05:20.60 = 14138240 samples = 24044.6 CDDA sectors
File Size : 12.9M
Bit Rate : 323k
Sample Encoding: MPEG audio (layer I, II or III)
Comments :
Title=Empty Heart
Artist=Nerve Saw
Album=Peril
Tracknumber=6
Year=2020
Discnumber=1



[ Hidden Text ]
nomadgg1
по задумке аффтора это Панк/Олццкул Дед
swed
Редкостная шляпа...
Полнейший примитив...
judaz
То ли панки, решившие сбацать дэт-метал, то ли наоборот. В любом случае получилась хрень.
9158533668
judaz,
А меня прикололи, очень круто! На стыке жанров всегда интересная музня. А тут скриминг, шведятина и панк, хороший замес.
sabr
Вроде веселые и задорные ),-разок точно можно послушать
This is a "lo-fi" version of our main content. To view the full version with more information, formatting and images, please click here.
Invision Power Board © 2001-2020 Invision Power Services, Inc.