Help - Search - Members - Calendar
Full Version: Abhcan - The Pit (2020)
Metal Area - Extreme Music Portal > Releases Area / Релизы > New Releases
Gelukas


*Artist: Abhcan
*Album: The Pit
*Year: 2020
*Genre: Progressive Metal
*Country: France
*Format: mp3@CBR320kbps
*Size: 107MB

Tracklist:
1. Into The Pit 01:29
2. Time’s Up 05:12
3. The Pit 07:56
4. Substitute Reality 05:44
5. Mother 02:05
6. Sex It Up 05:08
7. Redemption (Part III) 06:14
8. Reflection Circus 08:14
9. Woman (Bonus Track) 04:46
******************************
Total playing time: 46:48




Technical info

Input File: 02 - Time\'s Up.mp3
Channels : 2
Sample Rate : 44100
Precision : 16-bit
Duration : 00:05:12.58 = 13784558 samples = 23443.1 CDDA sectors
File Size : 12.5M
Bit Rate : 321k
Sample Encoding: MPEG audio (layer I, II or III)
Comments :
Title=Time's Up
Artist=Abhcan
Album=The Pit
Tracknumber=02
Year=2020
Genre=Metal
Discnumber=1



[ Hidden Text ]
AHBAnep

Икстрим+авангард+женский вокал. Как-то не очень.
This is a "lo-fi" version of our main content. To view the full version with more information, formatting and images, please click here.
Invision Power Board © 2001-2020 Invision Power Services, Inc.