Help - Search - Members - Calendar
Full Version: Paralydium - Worlds Beyond (2020)
Metal Area - Extreme Music Portal > Releases Area / Релизы > Archive
necroscum


*Artist: Paralydium
*Album: Worlds Beyond
*Year: 2020
*Genre: Progressive Metal
*Country: Sweden
*Format: mp3@CBR320kbps
*Size: 105MB

Tracklist:
01. Eternal Paralydium 01:50
02. Within the Sphere 05:15
03. Synergy 07:25
04. Finding the Paragon 05:38
05. Crystal of Infinity 04:22
06. Awakening 02:08
07. The Source 06:25
08. Into Divinity 05:06
09. Seeker of the Light 07:28
******************************
Total playing time: 45:37




Technical info

Input File: 2 - Within the Sphere.mp3
Channels : 2
Sample Rate : 44100
Precision : 16-bit
Duration : 00:05:15.95 = 13933175 samples = 23695.9 CDDA sectors
File Size : 12.7M
Bit Rate : 322k
Sample Encoding: MPEG audio (layer I, II or III)
Comments :
Title=Within the Sphere
Artist=Paralydium
Album=Worlds Beyond
Tracknumber=2
Year=2020
Genre=Rock
Discnumber=1



[ Hidden Text ]
AHBAnep
[ Hidden Text ]
Dreamtale
Тут замечены посоны из Dynazty. А сама работа качественная – прогнал несколько раз и слушаю дальше. Есть парочка хитов.
Yarri
Шикардосный альбом! С большим удовольствием прослушал и переслушиваю.

Как я понимаю, это они же:
The Paralydium Project - The Paralydium Project [ep] (2015)
Kitalter
Всё красиво сыграно, хитовость чувствуется. Но блин, как-то, не зацепило.
smes
крутейший альбом от и до. Тут почти каждая песня хит. Обожаю такой прог на хеви основе
KLOP
Мощный альбом. Вот такой прог я люблю, а не академическое пиликанье. Кто бы перезалил еще bye.gif
This is a "lo-fi" version of our main content. To view the full version with more information, formatting and images, please click here.
Invision Power Board © 2001-2021 Invision Power Services, Inc.