Help - Search - Members - Calendar
Full Version: Nick Cave And The Bad Seeds - No More Shall We Part (2001)
Metal Area - Extreme Music Portal > Releases Area / Релизы > New Releases > Unformat R:
Ambercandle


*Artist: Nick Cave And The Bad Seeds
*Album: No More Shall We Part
*Year: 2001
*Genre: Alternative Rock
*Country: Australia
*Format: mp3@CBR320kbps
*Size: 176MB

Tracklist:
1 As I Sat Sadly By Her Side (6:15)
2 And No More Shall We Part (4:00)
3 Hallelujah (7:48)
4 Love Letter (4:08)
5 Fifteen Feet Of Pure White Snow (5:36)
6 God Is In The House (5:44)
7 Oh My Lord (7:30)
8 Sweetheart Come (4:58)
9 The Sorrowful Wife (5:18)
10 We Came Along This Road (6:08)
11 Gates To The Garden (4:09)
12 Darker With The Day (6:07)
13 Grief Came Riding" (5:07)
14 Bless His Ever Loving Heart (4:02)
******************************
Total playing time: 1:16:50

Extended info
+scans.


Technical info

Input File: 02. And No More Shall We Part.mp3
Channels : 2
Sample Rate : 44100
Precision : 16-bit
Duration : 00:04:05.28 = 10816892 samples = 18396.1 CDDA sectors
File Size : 10.0M
Bit Rate : 326k
Sample Encoding: MPEG audio (layer I, II or III)
Comments :
Title=And No More Shall We Part
Artist=Nick Cave And The Bad Seeds
Album=No More Shall We Part
Tracknumber=02
Year=2001
Genre=Alternative Rock, Art-Rock



[ Hidden Text ]
paganheart

Альбом - шикарнейший! Где-то до сих пор лежит лицензионная студийная кассета с оным. А открывашка - одна из любимейших в творчестве дяди Коли. headcrab.png
Ghostb
Пожалуй, мой самый любимый диск Кейва.

ЦИТАТА(paganheart @ Jul 30 2020, 22:14:54) *
открывашка - одна из любимейших в творчестве дяди Коли

Да, еще выделю: "And No More Shall We Part", "God Is In The House", "Oh My Lord" (!), необычную по ощущениям почти думовую "The Sorrowful Wife", "We Came Along This Road" и бонусную "Bless His Ever Loving Heart". Лайвы тех времен тоже шикарные просто (хотя, это вообще сильная сторона исполнителя):

vosmidesijatye
Альбом - последняя яркая вспышка Ника. Открывашка реально кайф кайфушный 20.gif

Жаль, но видать новых работ сабжевого уровня нам больше не видать.
Bruce
Альбом очень неровный, как по мне Dig Lazarus Dig намного интересней
Ghostb
ЦИТАТА(Bruce @ Aug 1 2020, 16:03:55) *
Альбом очень неровный, как по мне Dig Lazarus Dig намного интересней

Явно не самый интересный релиз даже в позднем периоде (хотя и неплох). Уж лучше "Abattoir Blues/The Lyre of Orpheus", "Push the Sky Away" или даже прошлогодний "Ghosteen", не говоря уже про сабж)
paganheart
ЦИТАТА(Ghostb @ Aug 1 2020, 21:24:54) *
"Push the Sky Away"

Из поздних - самая мякотка! headcrab.png
INDARKNESS
этот релиз не сразу доходит до слушателя . ни с первой попытки.
This is a "lo-fi" version of our main content. To view the full version with more information, formatting and images, please click here.
Invision Power Board © 2001-2020 Invision Power Services, Inc.