*Artist: Beast Impalor
*Album: Goblin [ep]
*Year: 2020
*Genre: Symphonic Death/Folk Metal
*Country: Australia
*Format: mp3@CBR320kbps
*Size: 46MB

Tracklist:
1. Introducing Doctor Makrelmorgue 00:44
2. The Show (Haemo-Goblin, Pt. 1) 06:55
3. The Encore (Haemo-Goblin, Pt. 2) 07:46
4. Goblin! 04:24
******************************
Total playing time: 19:49




Extended info
Andy Read Bass
Reece Paine Guitars, Vocals (backing)
Adma Kluckers Vocals


Technical info

Input File: Beast Impalor - Goblin - 03 The Encore (Haemo-Goblin, Pt. 2).mp3
Channels : 2
Sample Rate : 44100
Precision : 16-bit
Duration : 00:07:46.15 = 20557391 samples = 34961.5 CDDA sectors
File Size : 18.8M
Bit Rate : 322k
Sample Encoding: MPEG audio (layer I, II or III)
Comments :
Title=The Encore (Haemo-Goblin, Pt. 2)
Artist=Beast Impalor
Album=Goblin
Tracknumber=3
Year=2020



[ Hidden Text ]