Help - Search - Members - Calendar
Full Version: The Dead Sea - The Ceremony Of Marrying A Mummy (2020)
Metal Area - Extreme Music Portal > Releases Area / Релизы > New Releases
Samaritianin


*Artist: The Dead Sea
*Album: The Ceremony Of Marrying A Mummy
*Year: 2020
*Genre: Melodic Doom/Death Metal
*Country: Jordan
*Format: mp3@CBR320kbps
*Size: 121MB

Tracklist:
1. Dancing With Armless Carcass 07:28
2. A Ring For Decomposed Finger 05:25
3. Kissing The Lipless Head 05:17
4. Bridal Dress For A Corpse 06:19
5. The Ceremony Of Marrying A Mummy 05:12
6. Orchestral Burial 05:03
7. The Scent Of Decayed Face 03:54
8. My Withered Admirer 04:40
9. Saline Whispers 05:11
10. The Dance Is Over (Outro) 02:18
******************************
Total playing time: 50:47




Extended info
Azmo Lozmodial All instruments, Vocals (2019-present)
See also: Now Everything Fades, Tholomat, Xathrites, ex-Al Lat, ex-DeathDiaries, ex-Forgive Me, ex-Lord Azmo, Cyclothymia, ex-Chalice of Doom


Technical info

Input File: 04 Bridal Dress for a Corpse.mp3
Channels : 2
Sample Rate : 44100
Precision : 16-bit
Duration : 00:06:19.35 = 16729115 samples = 28450.9 CDDA sectors
File Size : 15.7M
Bit Rate : 331k
Sample Encoding: MPEG audio (layer I, II or III)
Comments :
Title=Bridal Dress for a Corpse
Artist=The Dead Sea
Album=The Ceremony of Marrying a Mummy
Tracknumber=4/10
Year=2020-20-20
Genre=Alternative
Discnumber=1/1



[ Hidden Text ]
vosmidesijatye
This romantic track titles 15.gif
GRAF
Идея хороша, но исполнение отвратительное.
skidnik
QUOTE(GRAF @ 31st July 2020 - 16:31:59) *
Идея хороша,

Альбом же, очевидно из названий, воспевает некрофилию. Вот это признание.
serjred
Очень даже неплохо
vikt11
50на50....
6666666
ЦИТАТА(GRAF @ 31st July 2020 - 16:31:59) *
но исполнение отвратительное

На страну посмотри и не делай идиотских утверждений.
dm666




Lossless: FLAC (tracks)
[ Hidden Text ]
vikt11
Давно в думе так нечего не цепляло.. Композиция A Ring For Decomposed Finger три дня на репите...Вникать в суть текста не стоит - чистая ниекрофилия ... Да по хрен на текст, главное атмосферность, а она здесь просто зашкаливает!!!
Bloodn Lord
Материал и взаправду очень красивый. Музыкальная составляющая высшего разряда. Особенно, учитывая то, что музыканты из Иордании.
Подкачал, конечно, вокал, как недогроул, так и чистый, смахивающий больше на готик-рок smile2.gif Ну да ладно, ребята на правильном пути.
Stepan
Вася, дорогой, а что не так с Иорданией? Там что, люди не такие талантливые или второго сорта? Что за дискриминация?
SatanicPanzer
1488.gif
This is a "lo-fi" version of our main content. To view the full version with more information, formatting and images, please click here.
Invision Power Board © 2001-2020 Invision Power Services, Inc.