Help - Search - Members - Calendar
Full Version: Goat Hill Massacre - Black Water Burial (2020)
Metal Area - Extreme Music Portal > Releases Area / Релизы > New Releases
Samaritianin


*Artist: Goat Hill Massacre
*Album: Black Water Burial
*Year: 2020
*Genre: Thrash/Groove Metal
*Country: United States
*Format: mp3@CBR320kbps
*Size: 90MB

Tracklist:
1. All Flesh Is Equal When Burned 05:05
2. Curse of Goathulu 04:55
3. Mountain of the Dead 03:48
4. Sudden Nocturnal Death Syndrome 03:11
5. The Raven 04:55
6. Abomination 05:16
7. Black Water Burial 09:46
******************************
Total playing time: 36:56




Extended info
Josh Walton Bass
Danielle Wilkins Drums
Joe Wilkins Guitars
Andre Whitehair Vocals


Technical info

Input File: 05 The Raven.mp3
Channels : 2
Sample Rate : 44100
Precision : 16-bit
Duration : 00:04:55.93 = 13050557 samples = 22194.8 CDDA sectors
File Size : 12.6M
Bit Rate : 340k
Sample Encoding: MPEG audio (layer I, II or III)
Comments :
Title=The Raven
Artist=Goat Hill Massacre
Album=Black Water Burial
Tracknumber=5/7
Year=2020-20-20
Genre=Metal
Discnumber=1/1



[ Hidden Text ]
frituz3
thank you
This is a "lo-fi" version of our main content. To view the full version with more information, formatting and images, please click here.
Invision Power Board © 2001-2020 Invision Power Services, Inc.