Help - Search - Members - Calendar
Full Version: Carillon - Absent Presence [ep] (2019)
Metal Area - Extreme Music Portal > Releases Area / Релизы > Archive
slack


*Artist: Carillon
*Album: Absent Presence [ep]
*Year: 2019
*Genre: Heavy/Speed/Progressive Metal
*Country: Argentina
*Format: mp3@CBR320kbps
*Size: 60MB

Tracklist:
01. Absent Presence 10:49
02. Tango Sadness (Part I) 04:14
03. Tango Sadness (Part II) 02:36
04. Siren Song 08:14
******************************
Total playing time: 25:53



Technical info

Input File: 04 Siren Song.mp3
Channels : 2
Sample Rate : 44100
Precision : 16-bit
Duration : 00:08:15.05 = 21831749 samples = 37128.8 CDDA sectors
File Size : 19.9M
Bit Rate : 322k
Sample Encoding: MPEG audio (layer I, II or III)
Comments :
Title=Siren Song
Artist=Carillon
Album=2019 Absent Presence
Tracknumber=04/04
Year=2019
Genre=Heavy/Speed/Progressive Metal



[ Hidden Text ]
Ogidni
Darkness
Классная музыка , но файлопомойка паршивая.
This is a "lo-fi" version of our main content. To view the full version with more information, formatting and images, please click here.
Invision Power Board © 2001-2020 Invision Power Services, Inc.