Help - Search - Members - Calendar
Full Version: Mors Principium Est - A Day For Redemption [single] (2020)
Metal Area - Extreme Music Portal > Releases Area / Релизы > New Releases
vosmidesijatye


*Artist: Mors Principium Est
*Album: A Day For Redemption [single]
*Year: 2020
*Genre: Melodic Death Metal
*Country: Finland
*Format: mp3@CBR320kbps
*Size: 11MB

Tracklist:
1. A Day For Redemption 05:03
******************************
Total playing time: 5:03



Technical info

Input File: 01 A Day for Redemption.mp3
Channels : 2
Sample Rate : 44100
Precision : 16-bit
Duration : 00:05:03.53 = 13385805 samples = 22765 CDDA sectors
File Size : 12.1M
Bit Rate : 320k
Sample Encoding: MPEG audio (layer I, II or III)
Comments :
Title=A Day for Redemption
Artist=Mors Principium Est
Album=A Day for Redemption
Tracknumber=01/01
Year=2020
Discnumber=1/1



[ Hidden Text ]
Vovannn
Добротная весчь,жду альбом с нетерпением! 5.gif
This is a "lo-fi" version of our main content. To view the full version with more information, formatting and images, please click here.
Invision Power Board © 2001-2020 Invision Power Services, Inc.