Help - Search - Members - Calendar
Full Version: Brick - Done Counting My Scars (2020)
Metal Area - Extreme Music Portal > Releases Area / Релизы > New Releases
Samaritianin


*Artist: Brick
*Album: Done Counting My Scars
*Year: 2020
*Genre: Heavy Metal
*Country: Sweden
*Format: mp3@CBR320kbps
*Size: 109MB

Tracklist:
1. Done Counting My Scars 05:17
2. Americas First 04:31
3. Beloved Congregation 04:49
4. Lifes Like 05:20
5. One Less Day 04:59
6. Shy of Seventeen 04:16
7. I Am War 04:44
8. No.1 Fan 05:38
9. Taking Turns 04:29
10. Turn to Gray 03:11
******************************
Total playing time: 47:14



Extended info
Erik "Gora" Göransson Bass
See also: ex-Black Barrel Smoke
Dado Hrnic Drums
See also: ex-Devastated
Matte Lilja Guitars
Gustav "Gurra" Widerquist Keyboards
Johan Hultgren Vocals
Fredrik Finnander Guitars (2017-present)
See also: ex-Aeon, ex-Kayser, ex-Rise and Shine, ex-Jack of All Trades, ex-All the Way


Technical info

Input File: 05 - One Less Day.mp3
Channels : 2
Sample Rate : 44100
Precision : 16-bit
Duration : 00:04:59.67 = 13215315 samples = 22475 CDDA sectors
File Size : 12.1M
Bit Rate : 324k
Sample Encoding: MPEG audio (layer I, II or III)
Comments :
Title=One Less Day
Artist=Brick
Album=Done Counting My Scars
Tracknumber=5
Year=2020



[ Hidden Text ]
VLADISLAV_V_K
FLAC tracks
[ Hidden Text ]
This is a "lo-fi" version of our main content. To view the full version with more information, formatting and images, please click here.
Invision Power Board © 2001-2020 Invision Power Services, Inc.