Help - Search - Members - Calendar
Full Version: Sneglefeber - Sneglefeber (2020)
Metal Area - Extreme Music Portal > Releases Area / Релизы > New Releases
VLADISLAV_V_K


*Artist: Sneglefeber
*Album: Sneglefeber
*Year: 2020
*Genre: Doom/Sludge Metal
*Country: Denmark
*Format: mp3@CBR320kbps
*Size: 96MB

Tracklist:
01. Spawn of Grief 09:00
02. Fear of the Salt 12:44
03. Sneglefeber 08:32
04. Stankman 11:25
******************************
Total playing time: 41:41


Preview 2


Extended info


released September 4, 2020

Indspillet i Folkes garage april 2019.
Mixet af André Bugge i Mycelium Moss studio.
Mastereret af Emil Thomsen i ET studio.
Artwork af Søren Schjødt

Kørfirs Records 2020

***FLAC-Rip***


Technical info

Input File: 03-Sneglefeber.mp3
Channels : 2
Sample Rate : 44100
Precision : 16-bit
Duration : 00:08:32.11 = 22584007 samples = 38408.2 CDDA sectors
File Size : 20.5M
Bit Rate : 320k
Sample Encoding: MPEG audio (layer I, II or III)
Comments :
Title=Sneglefeber
Artist=Sneglefeber
Album=Sneglefeber
Tracknumber=3
Year=2020
Genre=Doom / Sludge Metal



[ Hidden Text ]
VLADISLAV_V_K
FLAC tracks
[ Hidden Text ]
This is a "lo-fi" version of our main content. To view the full version with more information, formatting and images, please click here.
Invision Power Board © 2001-2020 Invision Power Services, Inc.