*Artist: Resurrections
*Album: Spewed Forth From Hell
*Year: 2020
*Genre: Thrash/Death Metal
*Country: New Zealand
*Format: mp3@CBR320kbps
*Size: 112MB

Tracklist:
1. At the Gates
2. Spewed Forth from Hell
3. Haunting the Night
4. Deaths Rejected Resurrections
5. A Nocturnal Feast
6. Awakening an Ancient One
7. The Nocturnal Beast
8. Blunting the Reapers Scythe
9. Departure
10. Beyond the Gates of Life and Death
******************************
Total playing time: 48:49



Extended info
All music and lyrics property of Jeremy Giles


Technical info

Input File: 04 - Deaths Rejected Resurrections.mp3
Channels : 2
Sample Rate : 44100
Precision : 16-bit
Duration : 00:06:33.90 = 17370814 samples = 29542.2 CDDA sectors
File Size : 15.9M
Bit Rate : 322k
Sample Encoding: MPEG audio (layer I, II or III)
Comments :
Title=Deaths Rejected Resurrections
Artist=Resurrections
Album=Spewed Forth from Hell
Tracknumber=4
Year=2020



[ Hidden Text ]