Help - Search - Members - Calendar
Full Version: Titan To Tachyons - Cactides (2020)
Metal Area - Extreme Music Portal > Releases Area / Релизы > New Releases > Unformat R:
mirotvorets


*Artist: Titan To Tachyons
*Album: Cactides
*Year: 2020
*Genre: Progressive Metal/Experimental Metal/Jazz/Instrumental
*Country: United States
*Format: mp3@CBR320kbps
*Size: 95MB

Tracklist:
1.Morphing Machineminds 05:53
2.The Starthinker is Obsolete 08:02
3.Tycho Magnetic 09:31
4.Earth, and Squidless 07:59
5.Everybody's Dead, Dave 09:30
******************************
Total playing time: 40:55




Extended info
Sally Gates (ex-Gigan, Orbweaver) – Guitar
Matt Hollenberg (Cleric, John Zorn) – Bass VI
Kenny Grohowski (Imperial Triumphant, Thoren, Pyrrhon, Brand X, etc.) – Drums
+
Trevor Dunn (Mr. Bungle, Fantômas, Tomahawk, etc.) – Bass on “Everybody's Dead, Dave”


Technical info

Input File: 02. The Starthinker Is Obsolete.mp3
Channels : 2
Sample Rate : 44100
Precision : 16-bit
Duration : 00:08:02.35 = 21271811 samples = 36176.5 CDDA sectors
File Size : 20.1M
Bit Rate : 333k
Sample Encoding: MPEG audio (layer I, II or III)
Comments :
Title=The Starthinker Is Obsolete
Artist=Titan to Tachyons
Album=Cactides
Tracknumber=2
Year=2020



[ Hidden Text ]
AHBAnep
Занятная музыка
[ Hidden Text ]
Ghostb
Состав небезынтересен, надо заценить.
Ghostb
Ничего особенного, в общем-то, только третий трек цепанул - основной мотив там больно прилипчивый. Хотя, сыграно, конечно, здорово.
This is a "lo-fi" version of our main content. To view the full version with more information, formatting and images, please click here.
Invision Power Board © 2001-2021 Invision Power Services, Inc.