Help - Search - Members - Calendar
Full Version: Evilyn - Inside Shells [ep] (2020)
Metal Area - Extreme Music Portal > Releases Area / Релизы > New Releases
Samaritianin


*Artist: Evilyn
*Album: Inside Shells [ep]
*Year: 2020
*Genre: Avant-Garde Death Metal
*Country: International
*Format: mp3@CBR320kbps
*Size: 42MB

Tracklist:
1. Colossal Cyclops 03:00
2. Spires 03:35
3. Inside Shells 04:43
4. Breaker of Chains 02:57
5. Embers Burn 02:40
******************************
Total playing time: 16:55



Extended info
United States / Canada
Anthony Lipari - Guitars, Vocals & Composition
Lee Fisher - Drums
Jim Hildebrandt - Bass


Technical info

Input File: 03 Inside Shells.mp3
Channels : 2
Sample Rate : 44100
Precision : 16-bit
Duration : 00:04:43.81 = 12515977 samples = 21285.7 CDDA sectors
File Size : 12.0M
Bit Rate : 338k
Sample Encoding: MPEG audio (layer I, II or III)
Comments :
Title=Inside Shells
Artist=Evilyn
Album=Inside Shells
Tracknumber=3/5
Year=2020-20-20
Genre=Rock
Discnumber=1/1



[ Hidden Text ]
Vitald
Рискну послушать второй раз. С первого не раскусил.
This is a "lo-fi" version of our main content. To view the full version with more information, formatting and images, please click here.
Invision Power Board © 2001-2020 Invision Power Services, Inc.