Help - Search - Members - Calendar
Full Version: Victim Iced - Pieces (2020)
Metal Area - Extreme Music Portal > Releases Area / Релизы > New Releases
Samaritianin


*Artist: Victim Iced
*Album: Pieces
*Year: 2020
*Genre: Thrash Metal
*Country: Greece
*Format: mp3@CBR320kbps
*Size: 72MB

Tracklist:
1. Encased In Ice 03:24
2. Scorn 02:54
3. World Of Enemies 04:29
4. Ghost 02:51
5. The Will To Live 03:59
6. No Love Lost 03:57
7. The Plead 04:34
8. Cynical Fool 04:40
******************************
Total playing time: 30:48




Extended info
Rafail Dimitrios Raptis Bass
Hatzoglou Makis Guitars (lead)
Samos Angelos Vocals, Guitars
Ertoroul Moumin Drums


Technical info

Input File: 05 The Will To Live.mp3
Channels : 2
Sample Rate : 44100
Precision : 16-bit
Duration : 00:04:00.08 = 10587440 samples = 18005.9 CDDA sectors
File Size : 9.73M
Bit Rate : 324k
Sample Encoding: MPEG audio (layer I, II or III)
Comments :
Title=The Will To Live
Artist=Victim Iced
Album=Pieces
Tracknumber=5
Year=2020



[ Hidden Text ]
Samaritianin
FLAC (Tracks) 352 mb
[ Hidden Text ]
This is a "lo-fi" version of our main content. To view the full version with more information, formatting and images, please click here.
Invision Power Board © 2001-2020 Invision Power Services, Inc.