*Artist: In Low Spirits
*Album: Sunsets Beyond Our Lives [demo]
*Year: 1997
*Genre: Death/Doom Metal
*Country: Italy
*Format: mp3@VBR232kbps
*Size: 35MB

Tracklist:
1. Life 3:27
2. Landscapes 6:23
3. Visions 5:35
4. Soundless 4:11
5. The Holy Dream 2:02
******************************
Total playing time: 21:38

Technical info

Input File: 02-Landscapes-FFF.mp3
Channels : 2
Sample Rate : 44100
Precision : 16-bit
Duration : 00:06:23.19 = 16898679 samples = 28739.2 CDDA sectors
File Size : 11.3M
Bit Rate : 236k
Sample Encoding: MPEG audio (layer I, II or III)
Comments :
Title=Landscapes
Artist=In Low Spirits
Album=Sunsets Beyond Our Lives
Tracknumber=2
Year=1997
Genre=22



[ Hidden Text ]