Help - Search - Members - Calendar
Full Version: Haryon & Thangorodrim - Under The Reign Of A New Power (Split) [split] (2018)
Metal Area - Extreme Music Portal > Releases Area / Релизы > New Releases > Unformat R:
Dreamtale


*Artist: Haryon & Thangorodrim
*Album: Under The Reign Of A New Power (Split) [split]
*Year: 2018
*Genre: Dungeon Synth | Dungeon Synth
*Country: Germany | United States
*Format: mp3@CBR320kbps
*Size: 79MB

Tracklist:
1. Thangorodrim - Durin - The Deathless 9:12
2. Thangorodrim - Dimrill Dale - The Place of Shadowed Streams 8:55
3. Haryon - Thranduil - The King of Mirkwood 11:41
4. Haryon - Gondor - Amon Dîn 4:28
******************************
Total playing time: 34:16



Technical info

Input File: Haryon - Thangorodrim-Haryon - Under the Reign of a New Power - 04 Haryon - Gondor - Amon Dîn.mp3
Channels : 2
Sample Rate : 44100
Precision : 16-bit
Duration : 00:04:28.08 = 11822460 samples = 20106.2 CDDA sectors
File Size : 10.8M
Bit Rate : 323k
Sample Encoding: MPEG audio (layer I, II or III)
Comments :
Title=Haryon - Gondor - Amon Dîn
Artist=Haryon
Album=Thangorodrim/Haryon - Under the Reign of a New Power
Tracknumber=4
Year=2018



[ Hidden Text ]
Dreamtale
FLAC
[ Hidden Text ]
vosmidesijatye
Thangorodrim - один из топовейших современных данж синт проектов. pray.gif
INDARKNESS
ЦИТАТА(vosmidesijatye @ Sep 19 2020, 17:43:03) *
Thangorodrim - один из топовейших современных данж синт проектов. pray.gif
ну ну одноглазый король в королевстве слепых.твой топ самнабулический как и дум и все остальное.
Vitald
Феерическая куета.
This is a "lo-fi" version of our main content. To view the full version with more information, formatting and images, please click here.
Invision Power Board © 2001-2020 Invision Power Services, Inc.