*Artist: The Crypt Of Memories
*Album: Demo I [demo]
*Year: 2020
*Genre: Dungeon Synth
*Country: Greece
*Format: mp3@CBR320kbps
*Size: 64MB

Tracklist:
1.The path to the crypt 05:23
2.Pagan ritual 03:07
3.Accused of necromancy 02:43
4.Imprisoned 04:10
5.March of the skeletons 02:31
6.Where memories go 03:40
7.Afterlife 05:24
******************************
Total playing time: 26:58



Technical info

Input File: The Crypt of Memories - Demo I - 05 March of the skeletons.mp3
Channels : 2
Sample Rate : 44100
Precision : 16-bit
Duration : 00:02:31.23 = 6669287 samples = 11342.3 CDDA sectors
File Size : 6.23M
Bit Rate : 330k
Sample Encoding: MPEG audio (layer I, II or III)
Comments :
Title=March of the skeletons
Artist=The Crypt of Memories
Album=Demo I
Tracknumber=5
Year=2020



[ Hidden Text ]