Help - Search - Members - Calendar
Full Version: Nietzu - Memoriam Sanguinis (2020)
Metal Area - Extreme Music Portal > Releases Area / Релизы > Archive
smysl


*Artist: Nietzu
*Album: Memoriam Sanguinis
*Year: 2020
*Genre: Atmospheric/Post-Black Metal
*Country: United Kingdom
*Format: mp3@CBR320kbps
*Size: 93MB

Tracklist:
1.Bitter Clay 07:18
2.Hearthweru 04:49
3.Funereal Exile 02:33
4.Antiqua Ligno 03:49
5.The Shrike 05:27
6.Carcharoth 04:38
7.Sigil 07:29
8.Invert Lazuli 04:14
******************************
Total playing time: 40:17



Technical info

Input File: 01 Bitter Clay.mp3
Channels : 2
Sample Rate : 44100
Precision : 16-bit
Duration : 00:07:18.83 = 19352491 samples = 32912.4 CDDA sectors
File Size : 17.6M
Bit Rate : 321k
Sample Encoding: MPEG audio (layer I, II or III)
Comments :
Title=Bitter Clay
Artist=Nietzu
Album=Memoriam Sanguinis
Tracknumber=1
Year=2020
Genre=Black Metal



[ Hidden Text ]
Storky
NIce one
noxspiritus
Хорошо, но на раз и не более...
This is a "lo-fi" version of our main content. To view the full version with more information, formatting and images, please click here.
Invision Power Board © 2001-2021 Invision Power Services, Inc.