Help - Search - Members - Calendar
Full Version: Akral Necrosis - The Greater Absence (2020)
Metal Area - Extreme Music Portal > Releases Area / Релизы > Archive
smysl


*Artist: Akral Necrosis
*Album: The Greater Absence
*Year: 2020
*Genre: Black Metal
*Country: Romania
*Format: mp3@CBR320kbps
*Size: 151MB

Tracklist:
1.Silent Altar 05:08
2.Oldd Mirror 04:55
3.Intonation 05:18
4.In Nightmare Shades 04:48
5.Man in the Cauldron 05:12
6.Third Curse 06:21
7.Revamping the Inside 08:11
8.Plaguebound 07:53
9.I See the Bright Lights 08:01
10.Damnatio Memoriae 09:35
******************************
Total playing time: 1:05:22




Technical info

Input File: 01 Silent Altar.mp3
Channels : 2
Sample Rate : 44100
Precision : 16-bit
Duration : 00:05:08.62 = 13610098 samples = 23146.4 CDDA sectors
File Size : 12.5M
Bit Rate : 324k
Sample Encoding: MPEG audio (layer I, II or III)
Comments :
Title=Silent Altar
Artist=Akral Necrosis
Album=The Greater Absence
Tracknumber=1
Year=2020
Genre=Black Metal



[ Hidden Text ]
sabr
Весьма приятственный релиз,-как-то от румын не ждешь ничего в данном жанре,-так и не обратил бы внимания, если бы Ю-туб случайно не подсунул. Приятно удивили-Вроде ничего особенного, довольно быстрый блэк, не лишенный мелодий, но вот радует то, что пытаются сделать что-то свое, не пытаясь копировать кого-то конкретного. Не знаю, сколько проживет в плэйлисте, но точно больше пары прослушиваний
Решил даже старые релизы послушать )
Storky
nice atmosperic bm
Victim of fate
16 год был замечательным!!!
и тут всё что я люблю)))
This is a "lo-fi" version of our main content. To view the full version with more information, formatting and images, please click here.
Invision Power Board © 2001-2021 Invision Power Services, Inc.