Help - Search - Members - Calendar
Full Version: Vrimuot - O Tempora, O Mores! (2020)
Metal Area - Extreme Music Portal > Releases Area / Релизы > New Releases > Unformat R:
VLADISLAV_V_K


*Artist: Vrimuot
*Album: O Tempora, O Mores!
*Year: 2020
*Genre: Neofolk/Darkfolk
*Country: Germany
*Format: mp3@CBR320kbps
*Size: 116MB

Tracklist:
01. Aufbruch 08:08
02. Nymphaea Alba 09:18
03. Palingenese 07:36
04. Erwachen 07:43
05. Wolffsangel 08:12
06. Ewiger Mond 09:28
******************************
Total playing time: 50:25



Preview 3

Extended info


Vrîmuot is:
T.S. aka Lupus Viridis - compositions, all instruments, vocals

"O Tempora, O Mores!" is the debut album of Germany’s most promising new neofolk artist: Vrîmuot! While staying true to the genre's core aesthetics and stylings, Vrîmuot’s Mythopoeic Darkfolk rather equals a reinforcement and update of old neofolk values.

Vrîmuot from the fabled Teutoburg Forest, Germany, infuses fresh blood into the time-honored body of neofolk. This is made clear - resoundingly so - by "O Tempora, O Mores!" (Cicero: "Oh the times! Oh the customs!"), the project's first album.

Vrîmuot (Middle High German for "candour") was founded by composer, multi-instrumentalist and singer T.S.. While staying true to the genre's core aesthetics and stylings, his music rather equals a reinforcement and update of old neofolk values, created the DIY-way without any digital tools and unfolding in unusually long, intense narratives of crafty complexity.

Describing his venture as "Mythopoeic Darkfolk", T.S. wields his metaphorical heft to cathartic effect, conveying a positive message. "It is only through self-reflection that we transcend mundane existence, lighting a flame that strengthens and warms us. A flame of hope. An eternal flame."

"O Tempora, O Mores!" is "a polemic put to song", he elaborates, "based on personal experience of loss and recapture but also relatable to modernity and its inherent ills." Above all though, his intent is to evoke feelings in the spirit of the Romantics, escaping the present "samsara" to seek enlightenment, "the higher aim our natural being is striving for."

Likewise, the artwork of "O Tempora, O Mores!" is centered around 19th century sculptor Gotthard Sonnenfeld's statue "Besiegt" ("vanquished"), with medieval woodcuts and runes representing each tune and its "riddle" …

"O Tempora, O Mores!" was mastered by Markus Stock (Empyrium) and is available as 2CD hardcover book edition (18x18cm, 36 pages with lush artwork and a 18-minutes bonus CD with two exclusive songs) and LP.


***FLAC-Rip***


Technical info

Input File: 01-Aufbruch.mp3
Channels : 2
Sample Rate : 44100
Precision : 16-bit
Duration : 00:08:08.26 = 21532178 samples = 36619.4 CDDA sectors
File Size : 19.5M
Bit Rate : 320k
Sample Encoding: MPEG audio (layer I, II or III)
Comments :
Title=Aufbruch
Artist=Vrîmuot
Album=O tempora, O mores!
Tracknumber=1
Year=2020
Genre=Neofolk / Darkfolk



[ Hidden Text ]
VLADISLAV_V_K
FLAC tracks
[ Hidden Text ]
This is a "lo-fi" version of our main content. To view the full version with more information, formatting and images, please click here.
Invision Power Board © 2001-2020 Invision Power Services, Inc.