Help - Search - Members - Calendar
Full Version: Cosmic Rover - Spitting Fire (2020)
Metal Area - Extreme Music Portal > Releases Area / Релизы > New Releases
Necrokilldozer


*Artist: Cosmic Rover
*Album: Spitting Fire
*Year: 2020
*Genre: Stoner Metal
*Country: Brazil
*Format: mp3@CBR320kbps
*Size: 85MB

Tracklist:
1. Our Tattoos 04:29
2. Yesterday Was Crazy 02:25
3. Cosmic Rover 03:50
4. Spitting Fire 03:12
5. Electrify 03:52
6. Bright Highway 03:29
7. Never Forget 04:08
8. Lessons in a Bottle 04:11
9. Mushroom Memories 02:59
10. Space Mother Fucker 02:56
******************************
Total playing time: 35:31



Extended info
Line - up:

Rodrigo Felix - Drums
Rick Rocha - Guitars
Edson Graceffi - Vocals, Drums (Panzer, Reviolence, ex-Hefestos, ex-Punch, ex-Chasing Fear)



Technical info

Input File: 06. Bright Highway.mp3
Channels : 2
Sample Rate : 44100
Precision : 16-bit
Duration : 00:03:29.62 = 9244286 samples = 15721.6 CDDA sectors
File Size : 8.45M
Bit Rate : 323k
Sample Encoding: MPEG audio (layer I, II or III)
Comments :
Title=Bright Highway
Artist=Cosmic Rover
Album=Spitting Fire
Tracknumber=6
Year=2019
Genre=Stoner Metal



[ Hidden Text ]
Living_Beat
А где стоунер-то? Среднетемпавый хевяк с хриплым вокалюгой, такое себе, не нра, тупняка нет.
This is a "lo-fi" version of our main content. To view the full version with more information, formatting and images, please click here.
Invision Power Board © 2001-2020 Invision Power Services, Inc.