Help - Search - Members - Calendar
Full Version: Woeful Echo - Dampening Existence (2020)
Metal Area - Extreme Music Portal > Releases Area / Релизы > New Releases
Samaritianin


*Artist: Woeful Echo
*Album: Dampening Existence
*Year: 2020
*Genre: Atmospheric/Depressive Black Metal
*Country: United States
*Format: mp3@CBR320kbps
*Size: 90MB

Tracklist:
01. Apostles Of Nihilism
02. Delusions Of Grandeur
03. The Silence Of God
04. Dampening Existence
05. Pits Of Ignorance
06. Walking Among The Depraved
07. Chained To Walls Of Doubt
08. Between Layers Of Ether
09. Untouched Stone In The Desert
10. Dreaming Of Unrest
******************************
Total playing time: 38:47




Extended info
D. All instruments, Vocals
See also: Anomaly in Effigy, Astral Projection, Lilin, Necrosadist, Shitestrom, Strigoi VII, Stygian Vacuity, Succorbenoth, Tryblith, ex-Arsh Anubis, ex-Dark Monarchy, ex-EmptyLife, ex-Sorrow Lasts, ex-Mercuric


Technical info

Input File: 04 Dampening Existence.mp3
Channels : 2
Sample Rate : 44100
Precision : 16-bit
Duration : 00:04:00.08 = 10587440 samples = 18005.9 CDDA sectors
File Size : 9.72M
Bit Rate : 324k
Sample Encoding: MPEG audio (layer I, II or III)
Comments :
Title=Dampening Existence
Artist=Woeful Echo
Album=Dampening Existence
Tracknumber=04
Year=2020



[ Hidden Text ]
isvili
Кстати очень и очень не плохо. Depressive не услышал, может по текстам что есть, а так просто добротный Black Metal.
singrad
Different from their previous releases but still sounds very powerful.
This is a "lo-fi" version of our main content. To view the full version with more information, formatting and images, please click here.
Invision Power Board © 2001-2020 Invision Power Services, Inc.