Help - Search - Members - Calendar
Full Version: Undeath - Lesions Of A Different Kind (2020)
Metal Area - Extreme Music Portal > Releases Area / Релизы > Archive
Samaritianin


*Artist: Undeath
*Album: Lesions Of A Different Kind
*Year: 2020
*Genre: Death Metal
*Country: United States
*Format: mp3@CBR320kbps
*Size: 83MB

Tracklist:
1. Suitably Hacked to Gore 02:24
2. Shackles of Sanity 02:33
3. Lesions of a Different Kind 03:07
4. Entranced by the Pendulum 03:35
5. Acidic Twilight Visions 03:40
6. Lord of the Grave 03:58
7. Kicked in the Protruding Guts 04:54
8. Phantasmal Festering 04:04
9. Chained to a Reeking Rotted Body 02:36
10. Archfiend Coercion Methods 04:41
******************************
Total playing time: 35:32




Extended info
Matt Browning Drums
See also: ex-Antlers as Roots
Kyle Beam Guitars
Alex Joseph Vocals
Tommy Wall Bass (2020-present)
See also: Execution Hour, Hallucination Realized, Narrow Grave, Tomb Warden, Acquisition, Brainpan, Molten Way
Jared Welch Guitars (2020-present)



Technical info

Input File: 07. Kicked in the Protruding Guts.mp3
Channels : 2
Sample Rate : 44100
Precision : 16-bit
Duration : 00:00:00.29 = 12965 samples = 22.0493 CDDA sectors
File Size : 11.9M
Bit Rate : 324M
Sample Encoding: MPEG audio (layer I, II or III)
Comments :
Title=Kicked in the Protruding Guts
Artist=Undeath
Album=Lesions of a Different Kind
Tracknumber=7
Year=2020
Genre=Death Metal
Discnumber=1



[ Hidden Text ]
Samaritianin
FLAC (Tracks) 252 mb
[ Hidden Text ]
Dmitry1977
Огниво! Хотя демки круче были.
judaz
Уютный, ламповый gore-альбом.
Metalass
Да, альбом дюже приятный. С таким звуком можно что угодно сколько угодно слушать, но и материал тут не отстает, довольно разнообразен. Доставляют весьма.
This is a "lo-fi" version of our main content. To view the full version with more information, formatting and images, please click here.
Invision Power Board © 2001-2021 Invision Power Services, Inc.