Help - Search - Members - Calendar
Full Version: Toehider - I Like It! (2020)
Metal Area - Extreme Music Portal > Releases Area / Релизы > New Releases > Unformat R:
Old Vyaine


*Artist: Toehider
*Album: I Like It!
*Year: 2020
*Genre: Progressive Rock
*Country: Australia
*Format: mp3@CBR320kbps
*Size: 149MB

Tracklist:
01. GO FULL BORE! 4:05
02. wellgivit 4:38
03. Rancorous Heart 5:02
04. Moon and Moron 6:20
05. Concerning Lix & Fairs 6:34
06. The Ultimate Exalter 5:06
07. Died of Dancing 3:28
08. Bats Aren't Birds 3:25
09. The Guy That No-One Really Knows 6:25
10. He's There… And Then He Does THAT 6:07
11. How Much For That Dragon Tooth? 5:36
12. I LIKE IT! 6:22
******************************
Total playing time: 1:03:08



Extended info
Типичный Пальцепрят — очень живенько, с юмором и нестандартными решениями, и, как всегда (кроме 2014), ощущение некоторой недоработанности материала.


Technical info

Input File: 03. Rancorous Heart.mp3
Channels : 2
Sample Rate : 44100
Precision : 16-bit
Duration : 00:05:02.26 = 13329490 samples = 22669.2 CDDA sectors
File Size : 12.2M
Bit Rate : 322k
Sample Encoding: MPEG audio (layer I, II or III)
Comments :
Title=Rancorous Heart
Artist=Toehider
Album=I LIKE IT
Tracknumber=3/12
Year=2020
Genre=Progressive Rock



[ Hidden Text ]
Ghostb
Вокалист у них крутой, помнится, еще по Ayreon заметил. Из дискографии слышал только прошлый альбом - неплохо, но несколько сумбурно. Заценю, впрочем.
Ghostb
Интересный диск, много цепляющих моментов. Вокалист выделяется у них, конечно, в композиторском плане все далеко не так гладко.
Ghostb
И все-таки очень даже клевый альбом, есть стопроцентные хиты и потрясные мелодии, фолковые и квиновские вкрапления тоже нравятся. Просто материал не сразу расслушивается.
Old Vyaine
QUOTE(Ghostb @ 5th November 2020 - 13:57:48) *
есть стопроцентные хиты и потрясные мелодии, фолковые и квиновские вкрапления тоже нравятся.


Есть, есть.

QUOTE(Ghostb @ 5th November 2020 - 13:57:48) *
Просто материал не сразу расслушивается.


Как и всегда (кроме того же 2014, там сразу наповал).

Ghostb
ЦИТАТА(Old Vyaine @ Nov 5 2020, 20:50:17) *
кроме того же 2014, там сразу наповал

Надо заценить.
dimitriusk
ЦИТАТА(Old Vyaine @ 5th November 2020 - 21:50:17) *
Как и всегда (кроме того же 2014, там сразу наповал).

как и 2017
недавно переслушивал старые альбомы и [funnythings] засела в голове на неделю crazy.gif
этот альбом по первому прослушиванию показался попсой, но с каждым новым разом он раскрывается.
Ghostb
ЦИТАТА(dimitriusk @ Nov 6 2020, 22:08:58) *
как и 2017

Очень хитовый, да.

ЦИТАТА(dimitriusk @ Nov 6 2020, 22:08:58) *
недавно переслушивал старые альбомы и [funnythings] засела в голове на неделю

Мне эта вещь на 2017-ом нравится меньше всего, уж больно навязчивые ассоциации с Квин лезут 1488.gif А они не только этим сильны.

ЦИТАТА(dimitriusk @ Nov 6 2020, 22:08:58) *
с каждым новым разом он раскрывается

Да, у меня тоже (как и группа, в целом). Последние два диска - мои фавориты на данный момент, но все еще может измениться) Миллз все-таки очень талантливый чувак.
Yarri
Классный опенмайндовый альбом. И какой тут крутой вокалист! 20.gif
Old Vyaine
QUOTE(Yarri @ 1st December 2020 - 22:20:16) *
И какой тут крутой вокалист!


Такой же, какой и всегда crazy.gif
This is a "lo-fi" version of our main content. To view the full version with more information, formatting and images, please click here.
Invision Power Board © 2001-2021 Invision Power Services, Inc.