Help - Search - Members - Calendar
Full Version: Taur-Im-Duinath - The Burning Bridges (2020)
Metal Area - Extreme Music Portal > Releases Area / Релизы > Archive
Samaritianin


*Artist: Taur-Im-Duinath
*Album: The Burning Bridges
*Year: 2020
*Genre: Atmospheric Black Metal
*Country: Italy
*Format: mp3@CBR320kbps
*Size: 115MB

Tracklist:
1. L'Incedere Del Vuoto 01:50
2. Scrutare l'Abisso 05:45
3. Fuochi Estinti 08:14
4. La Chiusura Del Cerchio 08:49
5. To Wander 01:55
6. Clearing Path 04:57
7. Night Hymn 03:41
8. Hyades 04:11
9. Erinnerung 04:17
10. Aequor Animi 04:33
11. Ashes 01:36
******************************
Total playing time: 49:48




Extended info
F. Everything (2016-present)
See also: Scuorn (live), ex-Párodos, ex-One Day in Fukushima, ex-Throes of Perdition, ex-Crimson Delirium


Technical info

Input File: 08 - Hyades.mp3
Channels : 2
Sample Rate : 44100
Precision : 16-bit
Duration : 00:04:11.39 = 11086299 samples = 18854.2 CDDA sectors
File Size : 10.2M
Bit Rate : 323k
Sample Encoding: MPEG audio (layer I, II or III)
Comments :
Title=Hyades
Artist=Taur-Im-Duinath
Album=The Burning Bridges
Tracknumber=8
Year=2020



[ Hidden Text ]
Morgoth
2nd Bandcamp link
This is a "lo-fi" version of our main content. To view the full version with more information, formatting and images, please click here.
Invision Power Board © 2001-2021 Invision Power Services, Inc.