Help - Search - Members - Calendar
Full Version: Betrayel - Offerings (2020)
Metal Area - Extreme Music Portal > Releases Area / Релизы > New Releases
Samaritianin


*Artist: Betrayel
*Album: Offerings
*Year: 2020
*Genre: Thrash Metal
*Country: United States
*Format: mp3@CBR320kbps
*Size: 77MB

Tracklist:
1. Accelerant 04:10
2. Above and Beyond 03:09
3. Venomous 02:40
4. Offerings 02:34
5. My Demise 04:26
6. Meet Your Maker 02:15
7. Resurrected 03:05
8. Face of Pain 03:16
9. The Edge 03:39
10. Helpless Souls 03:37
******************************
Total playing time: 32:51



Extended info
Arlie Patton Drums
James Carter Guitars
James Johnson Guitars
Chris Campise Vocals, Bass


Technical info

Input File: 05 - My Demise.mp3
Channels : 2
Sample Rate : 44100
Precision : 16-bit
Duration : 00:04:27.30 = 11787886 samples = 20047.4 CDDA sectors
File Size : 10.9M
Bit Rate : 326k
Sample Encoding: MPEG audio (layer I, II or III)
Comments :
Title=My Demise
Artist=Betrayel
Album=Offerings
Tracknumber=5
Year=2020



[ Hidden Text ]
canadaspaceman
I checked it out on bandcamp - this is groove metal, not much thrash compared to their great demo tapes from the 1980s.
Maybe this is like the singer's other band? https://www.metal-archives.com/artists/Chris_Campise/165645
hammer
This is a "lo-fi" version of our main content. To view the full version with more information, formatting and images, please click here.
Invision Power Board © 2001-2021 Invision Power Services, Inc.