Help - Search - Members - Calendar
Full Version: Kalyot - The Harmonic Demise (2018)
Metal Area - Extreme Music Portal > Releases Area / Релизы > New Releases
RotAnus


*Artist: Kalyot
*Album: The Harmonic Demise
*Year: 2018
*Genre: Experimental Black/Death Metal
*Country: Poland
*Format: mp3@CBR320kbps
*Size: 95MB

Tracklist:
1. Scripta Obscura 00:47
2. Breed of the Witch of Endor 05:00
3. Ubiquus 04:25
4. Averting Death to Eternity 04:53
5. Those Masters I Hear 03:24
6. The Harmonic Demise 04:05
7. A Surgeon's Legacy 04:30
8. Sidera Funeral 04:41
9. The Gathering Bell 03:51
10. Apocrypha Illuminata 06:11
******************************
Total playing time: 41:47



Technical info

Input File: 06 - The Harmonic Demise.mp3
Channels : 2
Sample Rate : 44100
Precision : 16-bit
Duration : 00:04:06.12 = 10853672 samples = 18458.6 CDDA sectors
File Size : 9.84M
Bit Rate : 320k
Sample Encoding: MPEG audio (layer I, II or III)
Comments :
Title=The Harmonic Demise
Artist=Kalyot
Album=The Harmonic Demise
Tracknumber=6
Year=2018
Genre=Metal



[ Hidden Text ]
Vitald
Картинка - экспериментальная. 1488.gif. Музыка - ни о чём.
This is a "lo-fi" version of our main content. To view the full version with more information, formatting and images, please click here.
Invision Power Board © 2001-2021 Invision Power Services, Inc.