Help - Search - Members - Calendar
Full Version: Stormruler - Under The Burning Eclipse (2020)
Metal Area - Extreme Music Portal > Releases Area / Релизы > New Releases
Samaritianin


*Artist: Stormruler
*Album: Under The Burning Eclipse
*Year: 2020
*Genre: Black Metal
*Country: United States
*Format: mp3@CBR320kbps
*Size: 141MB

Tracklist:
1. Shine of Ivory Horns
2. Reign of the Winged Duke
3. The March Onto Golden Lands
4. Age of Steel & Blood
5. Culling of the Blood Moon
6. Blood of the Old Wolf
7. Journey to the Unknown
8. Under the Burning Eclipse
9. Prithee, Chosen
10. Of Hollowed Souls & Distant Flame
11. An Empire of Ash & Dust
12. At the Cliffs of Azure City
13. Illuminating the Ancient Sky
14. Dawn of the Eternal Fire
15. A Message From a Foreign King
16. Mark of the Valkyrie
17. Blood Ritual
18. Fear the Old Blood
19. Fields of Mortal Shame
******************************
Total playing time: 1:00:23




Extended info
Commander - Guitars/Vocals
J. Schobel - Drums/Vocals
Session work:
Derek Engemann - Bass


Technical info

Input File: 06 - Blood of the Old Wolf.mp3
Channels : 2
Sample Rate : 44100
Precision : 16-bit
Duration : 00:05:48.31 = 15360427 samples = 26123.2 CDDA sectors
File Size : 14.1M
Bit Rate : 324k
Sample Encoding: MPEG audio (layer I, II or III)
Comments :
Title=Blood of the Old Wolf
Artist=Stormruler
Album=Under the Burning Eclipse
Tracknumber=6
Year=2020



[ Hidden Text ]
isvili
Очень не плохой альбом, единственное что не хватает это хорошей записи, немного жидковато получилось.
Гитарки настроены как у ранних Dissection & Necrophobic
GoblinTracker3323
Posting strictly for awesome album art.
This is a "lo-fi" version of our main content. To view the full version with more information, formatting and images, please click here.
Invision Power Board © 2001-2021 Invision Power Services, Inc.